Freaks 1932 WEBrip 1080p x265 DD+2 0 D0ct0rLew[SEV] torrent download

seeders: 563
leechers: 429
updated:
Added ago by D0ct0rLew ***** in Movies
Torrent Downloaded 10 times.
Info Hash: FE8577E869396C31130CA4EB6BBEE0B6713966EA


Torrent Files

Freaks 1932 WEBrip 1080p x265 DD+2 0 D0ct0rLew[SEV] (Size: 2.8 GB)
  Freaks 1932 WEBrip 1080p x265 DD+2 0 D0ct0rLew[SEV] 2.8 GB

Torrent Description








Media Information


Unique ID : 198267358204734945683130659903657644868 (0x9528E77AB4E735B410938C77DA529344)
Complete name : Freaks 1932 WEBrip 1080p x265 DD+2 0 D0ct0rLew[SEV].mkv
Format : Matroska
Format version : Version 4
File size : 2.80 GiB
Duration : 1 h 2 min
Overall bit rate : 6 467 kb/s
Movie name : Freaks 1932 1080p WEBrip DD+2 0 x265
Encoded date : UTC 2019-01-11 19:43:22
Writing application : mkvmerge v29.0.0 ('Like It Or Not') 64-bit
Writing library : libebml v1.3.6 + libmatroska v1.4.9

Video
ID : 1
Format : HEVC
Format/Info : High Efficiency Video Coding
Format profile : Main [email protected]@Main
Codec ID : V_MPEGH/ISO/HEVC
Duration : 1 h 2 min
Bit rate : 6 113 kb/s
Width : 1 920 pixels
Height : 1 080 pixels
Display aspect ratio : 16:9
Frame rate mode : Constant
Frame rate : 23.976 (24000/1001) FPS
Color space : YUV
Chroma subsampling : 4:2:0
Bit depth : 10 bits
Bits/(Pixel*Frame) : 0.123
Stream size : 2.65 GiB (95%)
Writing library : x265 3.0_RC+4-8aebc58efe5c:[Windows][MSVC 1920][64 bit] 10bit
Encoding settings : cpuid=1111039 / frame-threads=3 / numa-pools=8 / wpp / no-pmode / no-pme / no-psnr / no-ssim / log-level=2 / input-csp=1 / input-res=1920x1080 / interlace=0 / total-frames=89274 / level-idc=0 / high-tier=1 / uhd-bd=0 / ref=5 / no-allow-non-conformance / no-repeat-headers / annexb / no-aud / no-hrd / info / hash=0 / no-temporal-layers / open-gop / min-keyint=24 / keyint=240 / gop-lookahead=0 / bframes=8 / b-adapt=2 / b-pyramid / bframe-bias=0 / rc-lookahead=90 / lookahead-slices=0 / scenecut=40 / radl=0 / no-splice / no-intra-refresh / ctu=64 / min-cu-size=8 / no-rect / no-amp / max-tu-size=32 / tu-inter-depth=3 / tu-intra-depth=3 / limit-tu=4 / rdoq-level=2 / dynamic-rd=0.00 / no-ssim-rd / signhide / no-tskip / nr-intra=0 / nr-inter=0 / no-constrained-intra / no-strong-intra-smoothing / max-merge=4 / limit-refs=1 / limit-modes / me=3 / subme=7 / merange=92 / temporal-mvp / weightp / weightb / no-analyze-src-pics / deblock=2:2 / sao / no-sao-non-deblock / rd=6 / no-early-skip / rskip / no-fast-intra / no-tskip-fast / no-cu-lossless / b-intra / no-splitrd-skip / rdpenalty=0 / psy-rd=1.10 / psy-rdoq=1.00 / no-rd-refine / no-lossless / cbqpoffs=1 / crqpoffs=1 / rc=crf / crf=18.3 / qcomp=0.60 / qpstep=4 / stats-write=0 / stats-read=0 / ipratio=1.40 / pbratio=1.30 / aq-mode=2 / aq-strength=1.00 / cutree / zone-count=0 / no-strict-cbr / qg-size=32 / no-rc-grain / qpmax=69 / qpmin=0 / no-const-vbv / sar=1 / overscan=0 / videoformat=5 / range=0 / colorprim=2 / transfer=2 / colormatrix=2 / chromaloc=0 / display-window=0 / max-cll=0,0 / min-luma=0 / max-luma=1023 / log2-max-poc-lsb=8 / vui-timing-info / vui-hrd-info / slices=1 / no-opt-qp-pps / no-opt-ref-list-length-pps / no-multi-pass-opt-rps / scenecut-bias=0.05 / no-opt-cu-delta-qp / no-aq-motion / no-hdr / no-hdr-opt / no-dhdr10-opt / no-idr-recovery-sei / analysis-reuse-level=5 / scale-factor=0 / refine-intra=0 / refine-inter=0 / refine-mv=0 / refine-ctu-distortion=0 / no-limit-sao / ctu-info=0 / no-lowpass-dct / refine-analysis-type=0 / copy-pic=1 / max-ausize-factor=1.0 / no-dynamic-refine / no-single-sei / no-hevc-aq / qp-adaptation-range=1.00
Default : Yes
Forced : No

Audio #1
ID : 2
Format : E-AC-3
Format/Info : Enhanced AC-3
Commercial name : Dolby Digital Plus
Codec ID : A_EAC3
Duration : 1 h 2 min
Bit rate mode : Constant
Bit rate : 224 kb/s
Channel(s) : 2 channels
Channel layout : L R
Sampling rate : 48.0 kHz
Frame rate : 31.250 FPS (1536 SPF)
Compression mode : Lossy
Stream size : 99.4 MiB (3%)
Language : English
Service kind : Complete Main
Default : Yes
Forced : No

Audio #2
ID : 4
Format : AAC LC
Format/Info : Advanced Audio Codec Low Complexity
Codec ID : A_AAC-2
Duration : 1 h 2 min
Bit rate : 128 kb/s
Channel(s) : 2 channels
Channel layout : L R
Sampling rate : 48.0 kHz
Frame rate : 46.875 FPS (1024 SPF)
Compression mode : Lossy
Delay relative to video : 9 ms
Stream size : 56.8 MiB (2%)
Title : Commentary by David J. Skal
Language : English
Default : No
Forced : No

Text
ID : 3
Format : UTF-8
Codec ID : S_TEXT/UTF8
Codec ID/Info : UTF-8 Plain Text
Duration : 1 h 1 min
Bit rate : 55 b/s
Count of elements : 1055
Stream size : 24.9 KiB (0%)
Language : English
Default : Yes
Forced : No

Menu
00:00:00.000 : en:01. Eyes for a Woman
00:04:38.006 : en:02. Children in the Forest
00:06:58.313 : en:03. Venus on the Move
00:13:05.713 : en:04. The Hilton Sisters
00:14:21.757 : en:05. Cleopatra's Wiles
00:17:40.290 : en:06. Women Must Worry
00:20:19.317 : en:07. Hit Me
00:23:11.823 : en:08. Baby News; Twin Trouble
00:25:09.909 : en:09. Conversations
00:28:10.757 : en:10. Saying Yes
00:32:18.171 : en:11. Frieda's Hurt
00:34:49.822 : en:12. Frieda's Plea
00:38:56.736 : en:13. Wedding Feast
00:41:39.932 : en:14. "One of Us!"
00:44:50.255 : en:15. A Joke
00:47:26.578 : en:16. Morning After
00:49:45.717 : en:17. Tonight
00:54:05.311 : en:18. Stormy Night
00:57:01.854 : en:19. Surrounding Hercules
00:59:32.137 : en:20. Code of the Freaks
01:01:38.764 : en:21. Cast List


We have no issue with individuals posting or re-uploading our torrents on a platform we aren't on. However, if this is something you'd like to do, please do so in a 'as-is' format. We ask that you do not create a new torrent, include all descriptions you see above including the SEV logo, tags, notes and screenshots. If you'd like to become a permanent poster on a website we don't post to, feel free to get in contact with a Sublime Encoded Video member.



We are recruiting/training new members for SEV & seedbox providers as well as people to help out with subtitles.
As you already know, we deliver quality, so you know the standard.
If you're interested, feel free to contact any of the team members.



Related Torrents

torrent name size age seed leech
1.6 GB 4 minutes 780 108
559.2 MB 4 minutes 367 377
10.3 GB 4 minutes 225 435
945 B  6 minutes 761 433
945 B  6 minutes 531 141

Sharing Widget


Download torrent
2.8 GB
seeders:1214
leechers:386
Freaks 1932 WEBrip 1080p x265 DD+2 0 D0ct0rLew[SEV]



To share this torrent use the code below and insert it into comments, status messages, forum posts or your signature.

Torrent: Freaks 1932 WEBrip 1080p x265 DD+2 0 D0ct0rLew[SEV]

Comments

Latest Searches

1x913 Acacias 38 | Dewshane Williams | The Good, The Bad, and Pokemon GO! 1x913 Acacias 38 | Dewshane Williams | The Good, The Bad, and Pokemon GO!